Page 749 of 784 FirstFirst ... 249649699739747748749750751759 ... LastLast
Results 7,481 to 7,490 of 7838

Thread: All missyou123's tutorials !! (updated daily)

  1. #7481
    Join Date
    Jun 2016
    Posts
    24,104
    Rep Power
    55

    Default Udemy - Node.js API Masterclass With Express & MongoDB (2019)



    Udemy - Node.js API Masterclass With Express & MongoDB (2019)
    WEBRip | English | MP4 | 1280 x 720 | AVC ~907 Kbps | 30 fps
    AAC | 128 Kbps | 44.1 KHz | 2 channels | ~12 hours | 5.1 GB
    Genre: Video Tutorial / Programming
    Create a real world backend for a bootcamp directory app. This is a project based course where we build an extensive, in-depth backend API for DevCamper, a bootcamp directory app. We will start from scratch and end up with a professional deployed API with documentation. We will dive deep into Node, Express and MongoDB. Here is some of what you will learn in this course and project...

    HTTP Essentials

    Postman Client

    RESTful APIs

    Express Framework

    Routing & Controller Methods

    MongoDB Atlas & Compass

    Mongoose ODM

    Advanced Query (Pagination, filter, etc)

    Models & Relationships

    Middleware (Express & Mongoose)

    MongoDB Geospatial Index / GeoJSON

    Geocoding

    Custom Error Handling

    User Roles & Permissions

    Aggregation

    Photo Upload

    Authentication With JWT & Cookies

    Emailing Password Reset Tokens

    Custom Database Seeder Using JSON Files

    Password & Token Hashing

    Security: NoSQL Injection, XSS, etc

    Creating Documentation

    Deployment With PM2, NGINX, SSL

    Who this course is for:
    People that want to learn backend web development with Node
    React/Vue/Angular Frontend devs that want to be full stack devs

    What you'll learn
    Real World Backend RESTful API For Bootcamp Directory App
    HTTP Fundamentals (Req/Res Cycle, Status Codes, etc)
    Advanced Mongoose Queries
    JWT/Cookie Authentication
    Express & Mongoose Middleware (Geocoding, Auth, Error Handling, etc)
    API Security (NoSQL injection, XSS protection, Rate Limiting)
    API Documentation & Deployment

    General
    Complete name : 11. Aggregate - Calculating The Average Course Cost.mp4
    Format : MPEG-4
    Format profile : Base Media
    Codec ID : isom (isom/iso2/avc1/mp41)
    File size : 121 MiB
    Duration : 16 min 14 s
    Overall bit rate : 1 044 kb/s
    Writing application : Lavf58.12.100

    Video
    ID : 1
    Format : AVC
    Format/Info : Advanced Video Codec
    Format profile : Main@L3.1
    Format settings : CABAC / 4 Ref Frames
    Format settings, CABAC : Yes
    Format settings, RefFrames : 4 frames
    Format settings, GOP : M=4, N=60
    Codec ID : avc1
    Codec ID/Info : Advanced Video Coding
    Duration : 16 min 14 s
    Bit rate : 907 kb/s
    Nominal bit rate : 3 000 kb/s
    Width : 1 280 pixels
    Height : 720 pixels
    Display aspect ratio : 16:9
    Frame rate mode : Constant
    Frame rate : 30.000 FPS
    Color space : YUV
    Chroma subsampling : 4:2:0
    Bit depth : 8 bits
    Scan type : Progressive
    Bits/(Pixel*Frame) : 0.033
    Stream size : 105 MiB (87%)
    Writing library : x264 core 148
    Encoding settings : cabac=1 / ref=3 / deblock=1:0:0 / analyse=0x1:0x111 / me=umh / subme=6 / psy=1 / psy_rd=1.00:0.00 / mixed_ref=1 / me_range=16 / chroma_me=1 / trellis=1 / 8x8dct=0 / cqm=0 / deadzone=21,11 / fast_pskip=1 / chroma_qp_offset=-2 / threads=22 / lookahead_threads=3 / sliced_threads=0 / nr=0 / decimate=1 / interlaced=0 / bluray_compat=0 / constrained_intra=0 / bframes=3 / b_pyramid=2 / b_adapt=1 / b_bias=0 / direct=1 / weightb=1 / open_gop=0 / weightp=2 / keyint=60 / keyint_min=6 / scenecut=0 / intra_refresh=0 / rc_lookahead=60 / rc=cbr / mbtree=1 / bitrate=3000 / ratetol=1.0 / qcomp=0.60 / qpmin=0 / qpmax=69 / qpstep=4 / vbv_maxrate=3000 / vbv_bufsize=6000 / nal_hrd=none / filler=0 / ip_ratio=1.40 / aq=1:1.00

    Audio
    ID : 2
    Format : AAC
    Format/Info : Advanced Audio Codec
    Format profile : LC
    Codec ID : mp4a-40-2
    Duration : 16 min 14 s
    Bit rate mode : Constant
    Bit rate : 128 kb/s
    Channel(s) : 2 channels
    Channel positions : Front: L R
    Sampling rate : 44.1 kHz
    Frame rate : 43.066 FPS (1024 SPF)
    Compression mode : Lossy
    Stream size : 14.9 MiB (12%)
    Default : Yes
    Alternate group : 1

    Screenshots








    Download link:
    Code:
    rapidgator_net: https://rapidgator.net/file/4b78435e10c1e51bd8ac3a566ebc585f/1ut7d.Udemy..Node.js.API.Masterclass.With.Express..MongoDB.2019.part01.rar.html https://rapidgator.net/file/92ad9a3d893edbafb70b04f102d9fc76/1ut7d.Udemy..Node.js.API.Masterclass.With.Express..MongoDB.2019.part02.rar.html https://rapidgator.net/file/0d2ff50ccde6e2f813af78d9fb09f3eb/1ut7d.Udemy..Node.js.API.Masterclass.With.Express..MongoDB.2019.part03.rar.html https://rapidgator.net/file/34ee92744b5769a5c286bd091e4eac08/1ut7d.Udemy..Node.js.API.Masterclass.With.Express..MongoDB.2019.part04.rar.html https://rapidgator.net/file/1ad0daafb654e87245f07d5d55dd38ea/1ut7d.Udemy..Node.js.API.Masterclass.With.Express..MongoDB.2019.part05.rar.html https://rapidgator.net/file/18a7d7de4a528783e98358428e77f7cb/1ut7d.Udemy..Node.js.API.Masterclass.With.Express..MongoDB.2019.part06.rar.html https://rapidgator.net/file/caf8ba6eac005d2cd1a8685df576c95b/1ut7d.Udemy..Node.js.API.Masterclass.With.Express..MongoDB.2019.part07.rar.html https://rapidgator.net/file/a4935ef1fee91ec2fcfca59f260c969c/1ut7d.Udemy..Node.js.API.Masterclass.With.Express..MongoDB.2019.part08.rar.html https://rapidgator.net/file/8703059a1a5137e1827a5ca273ec4e75/1ut7d.Udemy..Node.js.API.Masterclass.With.Express..MongoDB.2019.part09.rar.html nitroflare_com: https://nitroflare.com/view/21DD2D8126629E3/1ut7d.Udemy..Node.js.API.Masterclass.With.Express..MongoDB.2019.part01.rar https://nitroflare.com/view/263CEF9B8B8C5F3/1ut7d.Udemy..Node.js.API.Masterclass.With.Express..MongoDB.2019.part02.rar https://nitroflare.com/view/BF1BBB109916400/1ut7d.Udemy..Node.js.API.Masterclass.With.Express..MongoDB.2019.part03.rar https://nitroflare.com/view/5C6B6158A3E095C/1ut7d.Udemy..Node.js.API.Masterclass.With.Express..MongoDB.2019.part04.rar https://nitroflare.com/view/FC0F5CBAD369C20/1ut7d.Udemy..Node.js.API.Masterclass.With.Express..MongoDB.2019.part05.rar https://nitroflare.com/view/888E075AD1D122E/1ut7d.Udemy..Node.js.API.Masterclass.With.Express..MongoDB.2019.part06.rar https://nitroflare.com/view/E207693F0EAD5B3/1ut7d.Udemy..Node.js.API.Masterclass.With.Express..MongoDB.2019.part07.rar https://nitroflare.com/view/A4202E2F31B0397/1ut7d.Udemy..Node.js.API.Masterclass.With.Express..MongoDB.2019.part08.rar https://nitroflare.com/view/73C4322DB4B0B86/1ut7d.Udemy..Node.js.API.Masterclass.With.Express..MongoDB.2019.part09.rar uploadgig_com: http://uploadgig.com/file/download/d2F9c979a9ea28C7/1ut7d.Udemy..Node.js.API.Masterclass.With.Express..MongoDB.2019.part01.rar http://uploadgig.com/file/download/B5764b8fbf0be022/1ut7d.Udemy..Node.js.API.Masterclass.With.Express..MongoDB.2019.part02.rar http://uploadgig.com/file/download/2D3481Abe031bdFc/1ut7d.Udemy..Node.js.API.Masterclass.With.Express..MongoDB.2019.part03.rar http://uploadgig.com/file/download/7d2297cc62a07C4f/1ut7d.Udemy..Node.js.API.Masterclass.With.Express..MongoDB.2019.part04.rar http://uploadgig.com/file/download/5Ec59Cd4e7c15c47/1ut7d.Udemy..Node.js.API.Masterclass.With.Express..MongoDB.2019.part05.rar http://uploadgig.com/file/download/6EF10830b1d62145/1ut7d.Udemy..Node.js.API.Masterclass.With.Express..MongoDB.2019.part06.rar http://uploadgig.com/file/download/88e02a970441488d/1ut7d.Udemy..Node.js.API.Masterclass.With.Express..MongoDB.2019.part07.rar http://uploadgig.com/file/download/ccbaB94bfB30e733/1ut7d.Udemy..Node.js.API.Masterclass.With.Express..MongoDB.2019.part08.rar http://uploadgig.com/file/download/2133E3aa7f7feb30/1ut7d.Udemy..Node.js.API.Masterclass.With.Express..MongoDB.2019.part09.rar
    Links are Interchangeable - No Password - Single Extraction

  2. #7482
    Join Date
    Jun 2016
    Posts
    24,104
    Rep Power
    55

    Default Working with Android Tools and Testing [Updated Oct 2, 2019]



    Working with Android Tools and Testing pdated Oct 2, 2019
    .MP4, AVC, 1280x720, 30 fps | English, AAC, 2 Ch | 2h 51m | 380 MB
    Instructor: Jim Wilson

    In this course, start learning the skills necessary to work efficiently as an Android app developer, and assure quality software through testing by learning to effectively utilize the single most important tool for Android developers, Android Studio.

    With any craftsman, knowing how to use your tools is a critical part of doing a job well. Android Studio, is the single most important tool for Android developers, and it includes a wide variety of features that empower developers to work effectively and assure software quality through testing. In this course, Working with Android Tools and Testing, you'll learn the skills necessary to work efficiently as an Android app developer, and assure quality software through testing. First, you'll start by exploring Android Studio productivity tools, such as refactoring and automatic code generation. Next, you'll learn how to identify and resolve application problems using the debugger. From there, you'll learn how to incorporate more expansive feature support into your applications using Android Support Libraries and the Gradle build system. Finally, you'll learn how to assure software quality and reliability through the combination of local JVM unit tests, Android instrumented unit tests, and automated user interface tests. By the end of this course, you'll have the necessary skills and knowledge to utilize Android Studio efficiently for your own Android applications.



    Download link:
    Code:
    rapidgator_net: https://rapidgator.net/file/11cd83968056186abd7189acc7f737e1/ae0u5.Working.with.Android.Tools.and.Testing.Updated.Oct.2.2019.rar.html nitroflare_com: https://nitroflare.com/view/1318A7849D0E436/ae0u5.Working.with.Android.Tools.and.Testing.Updated.Oct.2.2019.rar uploadgig_com: http://uploadgig.com/file/download/4ddccE8db1fC3610/ae0u5.Working.with.Android.Tools.and.Testing.Updated.Oct.2.2019.rar
    Links are Interchangeable - No Password - Single Extraction

  3. #7483
    Join Date
    Jun 2016
    Posts
    24,104
    Rep Power
    55

    Default Data Visualization A Lesson and Listen Series [Updated 1022019]



    Data Visualization: A Lesson and Listen Series pdated 10/2/2019
    .MP4, AVC, 1280x720, 30 fps | English, AAC, 2 Ch | 3h 56m | 2.01 GB
    Instructor: Bill Shander

    Follow along with expert Bill Shander in this series exploring key themes in data visualization, data storytelling, and information design. Each episode is broken into two segments: a short lesson and a listening session where Bill interviews data storytelling and visualization experts about the episode theme. These conversations reveal the creative process, explore techniques and technologies used by working professionals, and illuminate some of the common challenges they face. This series is perfect for anyone interested in how information is presented to the mass market, including professionals in all levels of analytics, data science, and communications.



    Download link:
    Code:
    rapidgator_net: https://rapidgator.net/file/910c22b441e1634c7f5da77537e392a0/g3y4p.Data.Visualization.A.Lesson.and.Listen.Series.Updated.1022019.part1.rar.html https://rapidgator.net/file/a4a73b235774c50a5a154f582e50a865/g3y4p.Data.Visualization.A.Lesson.and.Listen.Series.Updated.1022019.part2.rar.html https://rapidgator.net/file/675fef29f511123986bd046dcda0ea38/g3y4p.Data.Visualization.A.Lesson.and.Listen.Series.Updated.1022019.part3.rar.html https://rapidgator.net/file/33c307417bf2bf4bf2733f022b7fde05/g3y4p.Data.Visualization.A.Lesson.and.Listen.Series.Updated.1022019.part4.rar.html https://rapidgator.net/file/3bfed2f923a11b1c3cd0da2621b6ccf5/g3y4p.Data.Visualization.A.Lesson.and.Listen.Series.Updated.1022019.part5.rar.html nitroflare_com: https://nitroflare.com/view/E2035B30974108F/g3y4p.Data.Visualization.A.Lesson.and.Listen.Series.Updated.1022019.part1.rar https://nitroflare.com/view/01D916E802F5518/g3y4p.Data.Visualization.A.Lesson.and.Listen.Series.Updated.1022019.part2.rar https://nitroflare.com/view/6095FCB4FA9BD47/g3y4p.Data.Visualization.A.Lesson.and.Listen.Series.Updated.1022019.part3.rar https://nitroflare.com/view/3C9B85075EC0784/g3y4p.Data.Visualization.A.Lesson.and.Listen.Series.Updated.1022019.part4.rar https://nitroflare.com/view/616CA92C686B47F/g3y4p.Data.Visualization.A.Lesson.and.Listen.Series.Updated.1022019.part5.rar uploadgig_com: http://uploadgig.com/file/download/7FE6655a86eff8a3/g3y4p.Data.Visualization.A.Lesson.and.Listen.Series.Updated.1022019.part1.rar http://uploadgig.com/file/download/015a968a45f65701/g3y4p.Data.Visualization.A.Lesson.and.Listen.Series.Updated.1022019.part2.rar http://uploadgig.com/file/download/36806ffcDA77cC54/g3y4p.Data.Visualization.A.Lesson.and.Listen.Series.Updated.1022019.part3.rar http://uploadgig.com/file/download/aba8B81188b76f4F/g3y4p.Data.Visualization.A.Lesson.and.Listen.Series.Updated.1022019.part4.rar http://uploadgig.com/file/download/dca06c55E63ac2fb/g3y4p.Data.Visualization.A.Lesson.and.Listen.Series.Updated.1022019.part5.rar
    Links are Interchangeable - No Password - Single Extraction

  4. #7484
    Join Date
    Jun 2016
    Posts
    24,104
    Rep Power
    55

    Default Financial Modeling and Forecasting Financial Statements



    Financial Modeling and Forecasting Financial Statements
    .MP4, AVC, 1280x720, 30 fps | English, AAC, 2 Ch | 1h 53m | 687 MB
    Instructors: Jim Stice, Earl Kay Stice

    Financial reports are not just summaries of the past-they also include predictions for the future. In fact, most financial institutions are more interested in future performance than historical trends. Banks want to know your future cash flow; investors want to know future profits. In this course, Jim and Kay Stice explains how to create forecasted financial statements for your company. Learn how to use past data such as cost of goods sold, depreciation expenses, and levels of inventory, and understand what caused those numbers to fluctuate over time. Then you can learn how to use the information as the basis for forecasting, applying a simple but powerful equation: assets = liability + equity. You get hands-on practice building three different documents: a forecasted income statement, a forecasted balance sheet, and a forecasted statement of cash flow. Throughout the course, Jim and Kay use famous business cases-like Home Depot's 1985 cash-flow crisis-to illustrate the importance of accurate financial forecasts and their impact on business decisions.

    Topics include:

    Uses of forecasting: loans and investments
    Combining historical trends with current plans
    Incorporating seasonal plans
    The importance of accuracy
    The impact of changes and choices
    Building a forecasted income statement
    Building a forecasted balance sheet
    Building a forecasted statement of cash flow



    Download link:
    Code:
    rapidgator_net: https://rapidgator.net/file/9086de880da6de4af899515a7e4a7846/azc3y.Financial.Modeling.and.Forecasting.Financial.Statements.rar.html nitroflare_com: https://nitroflare.com/view/BE69124F0C1450F/azc3y.Financial.Modeling.and.Forecasting.Financial.Statements.rar uploadgig_com: http://uploadgig.com/file/download/f84deb102C0918b3/azc3y.Financial.Modeling.and.Forecasting.Financial.Statements.rar
    Links are Interchangeable - No Password - Single Extraction

  5. #7485
    Join Date
    Jun 2016
    Posts
    24,104
    Rep Power
    55

    Default Developing Skills for AWS Alexa



    Developing Skills for AWS Alexa
    .MP4, AVC, 1280x720, 30 fps | English, AAC, 2 Ch | 2h 48m | 617 MB
    Instructor: Brandon Rich

    Discover how to create your own apps, also known as skills, for Alexa, the Amazon Echo brand of smart speakers. Learn essential terminology, how to build voice interactions, and how to test responsiveness. Explore what it takes to submit your skill for Amazon Echo certification before you can submit it to the Alexa Skills Store for publication to Amazon customers.

    Topics include:

    Designing effective voice interactions
    Designing an interaction model
    Building voice interactions
    Invocations
    Building an interaction model
    Alexa response functions
    Skills software development kit (SDK)
    Mapping values



    Download link:
    Code:
    rapidgator_net: https://rapidgator.net/file/8d5263d726bec5dafb56a1d254c8608d/afspm.Developing.Skills.for.AWS.Alexa.rar.html nitroflare_com: https://nitroflare.com/view/F73C835E8865752/afspm.Developing.Skills.for.AWS.Alexa.rar uploadgig_com: http://uploadgig.com/file/download/Cc4B640418b6cbdb/afspm.Developing.Skills.for.AWS.Alexa.rar
    Links are Interchangeable - No Password - Single Extraction

  6. #7486
    Join Date
    Jun 2016
    Posts
    24,104
    Rep Power
    55

    Default Drumeo - Independence Made Easy



    Drumeo - Independence Made Easy
    WEBRip | English | MP4 + MP3 + PDF Guides | 1280 x 720 | AVC ~1767 kbps | 23.976 fps
    AAC 256 Kbps 48.0 KHz | 2 channels | ~8.5 hours | 8.86 GB
    Genre: eLearning Video / Drum-set, Percussion
    Jared Falk is your personal drum coach for this 26-week course - helping you improve your drumming independence, guiding you toward becoming a more musical drummer, and giving you personal feedback to rapidly improve your skills.

    General
    Complete name : 04 - Week #1 - RLB.mp4
    Format : MPEG-4
    Format profile : Base Media / Version 2
    Codec ID : mp42 (mp42/mp41/isom/avc1)
    File size : 276 MiB
    Duration : 19 min 0 s
    Overall bit rate mode : Variable
    Overall bit rate : 2 027 kb/s
    Encoded date : UTC 2017-01-06 02:21:31
    Tagged date : UTC 2017-01-06 02:21:31

    Video
    ID : 1
    Format : AVC
    Format/Info : Advanced Video Codec
    Format profile : High@L3.2
    Format settings : CABAC / 5 Ref Frames
    Format settings, CABAC : Yes
    Format settings, RefFrames : 5 frames
    Codec ID : avc1
    Codec ID/Info : Advanced Video Coding
    Duration : 19 min 0 s
    Bit rate : 1 767 kb/s
    Width : 1 280 pixels
    Height : 720 pixels
    Display aspect ratio : 16:9
    Frame rate mode : Constant
    Frame rate : 23.976 (24000/1001) FPS
    Color space : YUV
    Chroma subsampling : 4:2:0
    Bit depth : 8 bits
    Scan type : Progressive
    Bits/(Pixel*Frame) : 0.080
    Stream size : 240 MiB (87%)
    Writing library : x264 core 148 r10 b97ae06
    Encoding settings : cabac=1 / ref=5 / deblock=1:0:0 / analyse=0x3:0x113 / me=hex / subme=8 / psy=1 / psy_rd=1.00:0.00 / mixed_ref=1 / me_range=16 / chroma_me=1 / trellis=2 / 8x8dct=1 / cqm=0 / deadzone=21,11 / fast_pskip=1 / chroma_qp_offset=-2 / threads=22 / lookahead_threads=3 / sliced_threads=0 / nr=0 / decimate=1 / interlaced=0 / bluray_compat=0 / stitchable=1 / constrained_intra=0 / bframes=3 / b_pyramid=2 / b_adapt=1 / b_bias=0 / direct=3 / weightb=1 / open_gop=0 / weightp=2 / keyint=infinite / keyint_min=23 / scenecut=40 / intra_refresh=0 / rc_lookahead=50 / rc=crf / mbtree=1 / crf=20.0 / qcomp=0.60 / qpmin=5 / qpmax=69 / qpstep=4 / vbv_maxrate=2750 / vbv_bufsize=7500 / crf_max=0.0 / nal_hrd=none / filler=0 / ip_ratio=1.40 / aq=1:1.00
    Encoded date : UTC 2017-01-06 02:21:31
    Tagged date : UTC 2017-01-06 02:21:31
    Color range : Limited
    Color primaries : BT.709
    Transfer characteristics : BT.709
    Matrix coefficients : BT.709

    Audio
    ID : 2
    Format : AAC
    Format/Info : Advanced Audio Codec
    Format profile : LC
    Codec ID : mp4a-40-2
    Duration : 19 min 0 s
    Bit rate mode : Variable
    Bit rate : 256 kb/s
    Channel(s) : 2 channels
    Channel positions : Front: L R
    Sampling rate : 48.0 kHz
    Frame rate : 46.875 FPS (1024 SPF)
    Compression mode : Lossy
    Stream size : 34.8 MiB (13%)
    Encoded date : UTC 2017-01-06 02:21:31
    Tagged date : UTC 2017-01-06 02:21:31

    Screenshots








    Download link:
    Code:
    rapidgator_net: https://rapidgator.net/file/d85d0da5ec1f68f3042c1959e410ec23/bg2bt.Drumeo..Independence.Made.Easy.part01.rar.html https://rapidgator.net/file/f9ccdc9e03a728d77b68437a3ba69789/bg2bt.Drumeo..Independence.Made.Easy.part02.rar.html https://rapidgator.net/file/5374a5116d2a4daa97c7944d7caed332/bg2bt.Drumeo..Independence.Made.Easy.part03.rar.html https://rapidgator.net/file/e4f8c718e4b336056653903af0576cce/bg2bt.Drumeo..Independence.Made.Easy.part04.rar.html https://rapidgator.net/file/8aa84c8fed46e436e469b973d86d3df4/bg2bt.Drumeo..Independence.Made.Easy.part05.rar.html https://rapidgator.net/file/e191f433d035142ac5421a80e0d52d54/bg2bt.Drumeo..Independence.Made.Easy.part06.rar.html https://rapidgator.net/file/aa19387c571b8ba0164fee8f3b5cdb39/bg2bt.Drumeo..Independence.Made.Easy.part07.rar.html https://rapidgator.net/file/7c7f8f4fe518c09f4ce7fe25eacc67b5/bg2bt.Drumeo..Independence.Made.Easy.part08.rar.html https://rapidgator.net/file/089aad58f9ee3f97e318f6be72ce6adb/bg2bt.Drumeo..Independence.Made.Easy.part09.rar.html nitroflare_com: https://nitroflare.com/view/4265B6D89D017F6/bg2bt.Drumeo..Independence.Made.Easy.part01.rar https://nitroflare.com/view/8D77A23F887C914/bg2bt.Drumeo..Independence.Made.Easy.part02.rar https://nitroflare.com/view/DD4E12D38EF32EE/bg2bt.Drumeo..Independence.Made.Easy.part03.rar https://nitroflare.com/view/2716E5551A220B8/bg2bt.Drumeo..Independence.Made.Easy.part04.rar https://nitroflare.com/view/96488A2C420A1C7/bg2bt.Drumeo..Independence.Made.Easy.part05.rar https://nitroflare.com/view/64D6FFB91773014/bg2bt.Drumeo..Independence.Made.Easy.part06.rar https://nitroflare.com/view/DE61D4A921C7FF4/bg2bt.Drumeo..Independence.Made.Easy.part07.rar https://nitroflare.com/view/C8CFDC45D146065/bg2bt.Drumeo..Independence.Made.Easy.part08.rar https://nitroflare.com/view/4D67BC932ECD55D/bg2bt.Drumeo..Independence.Made.Easy.part09.rar uploadgig_com: http://uploadgig.com/file/download/9D399d867b912cdc/bg2bt.Drumeo..Independence.Made.Easy.part01.rar http://uploadgig.com/file/download/fd19e58F7a5C0ede/bg2bt.Drumeo..Independence.Made.Easy.part02.rar http://uploadgig.com/file/download/Bfedf46a5877F92B/bg2bt.Drumeo..Independence.Made.Easy.part03.rar http://uploadgig.com/file/download/3cEf2b3f03dC3cF5/bg2bt.Drumeo..Independence.Made.Easy.part04.rar http://uploadgig.com/file/download/234a5941C290075A/bg2bt.Drumeo..Independence.Made.Easy.part05.rar http://uploadgig.com/file/download/e8e09d03A565d600/bg2bt.Drumeo..Independence.Made.Easy.part06.rar http://uploadgig.com/file/download/efAb8df20c834B34/bg2bt.Drumeo..Independence.Made.Easy.part07.rar http://uploadgig.com/file/download/a9a28158d8F489A5/bg2bt.Drumeo..Independence.Made.Easy.part08.rar http://uploadgig.com/file/download/5a1Ca52d08240c19/bg2bt.Drumeo..Independence.Made.Easy.part09.rar
    Links are Interchangeable - No Password - Single Extraction

  7. #7487
    Join Date
    Jun 2016
    Posts
    24,104
    Rep Power
    55

    Default Improving the Value of Your Time



    Improving the Value of Your Time
    .MP4, AVC, 1280x720, 30 fps | English, AAC, 2 Ch | 28m | 241 MB
    Instructor: Dave Crenshaw

    Join productive leadership author and speaker Dave Crenshaw as he shows you the key to enhancing your productivity-focusing on your most valuable activities and minimizing the distractions that waste your time. This course shows you how to determine how to increase your worth per hour while minimizing and offloading distractions. Create a plan to mind your time and effort and help coworkers and employees discover their most valuable activities, which can result in a career and productivity boost.

    Topics include:

    Discovering your most valuable activities
    Focusing by offloading tasks that weigh you down
    Enhancing productivity around the office
    Building a plan for improved delegation
    Creating a plan to track your time



    Download link:
    Code:
    rapidgator_net: https://rapidgator.net/file/83f16be7e4c12ea7b556d3c52379e5d0/hao0v.Improving.the.Value.of.Your.Time.rar.html nitroflare_com: https://nitroflare.com/view/7F55DB092D196BC/hao0v.Improving.the.Value.of.Your.Time.rar uploadgig_com: http://uploadgig.com/file/download/470c4912364e3217/hao0v.Improving.the.Value.of.Your.Time.rar
    Links are Interchangeable - No Password - Single Extraction

  8. #7488
    Join Date
    Jun 2016
    Posts
    24,104
    Rep Power
    55

    Default Review and Manage the SAP MRP List



    Review and Manage the SAP MRP List
    .MP4, AVC, 1280x720, 30 fps | English, AAC, 2 Ch | 23m | 86.5 MB
    Instructor: Nicole Land

    The material requirements planning (MRP) list is a key information source for anyone involved in inventory control and manufacturing. This course is focused on review and management of the MRP lists in SAP in order to identify and resolve issues coming out of the planning run. Learn how to access and navigate the MRP lists, decipher the MRP exception messages and traffic lights, and resolve exceptions found in your planning run. Plus, see a demo of the techniques in action.



    Download link:
    Code:
    rapidgator_net: https://rapidgator.net/file/b2d7f28a9757dc7252866c74904dfb36/7gw57.Review.and.Manage.the.SAP.MRP.List.rar.html nitroflare_com: https://nitroflare.com/view/05E4439B8B0E228/7gw57.Review.and.Manage.the.SAP.MRP.List.rar uploadgig_com: http://uploadgig.com/file/download/90C112363B8be12d/7gw57.Review.and.Manage.the.SAP.MRP.List.rar
    Links are Interchangeable - No Password - Single Extraction

  9. #7489
    Join Date
    Jun 2016
    Posts
    24,104
    Rep Power
    55

    Default Udemy - Candlestick Trading Ninja 10 Hour Candlestick Certification (2019)



    Udemy - Candlestick Trading Ninja 10 Hour Candlestick Certification (2019)
    WEBRip | English | MP4 | 1280 x 720 | AVC ~205 Kbps | 20 fps
    AAC | 192 Kbps | 48.0 KHz | 2 channels | ~10.5 hours | 1.67 GB
    Genre: eLearning Video / Forex, Trading, Stock
    Expert Technical Analysis & Candlestick Trading Hacks For Forex, Stock Trading, Day Trading & Swing Trading in 1 course.

    Hear why this is one of the TOP-NOTCH Candlestick Trading Course on Udemy:

    This course is fantastic. Explained each and everything excellently. After completing it you could see chart efficiently and you have clear idea on which direction stock is going. You can earn huge amount of money with this course. Happy to get this and Thanks for providing great knowledge.

    -Kushal Joshi

    A very good course for beginners to crypto/forex trading. The instructor was responsive and well engaging to questions asked. I suggest that at the end of each section, quizzes should be set to help grasp and understand better the concept taught in the current section.

    -Olabode Stephen

    This is the most comprehensive candle stick course I've seen. Content is great and the best part is that each video summarises a) the description of the pattern and then b) an example on the chart. Great work! Love this course.

    -Duncan Owen

    it was a wonderful course i enjoyed every bit of the training and I know that i will be on top of my trade hence fort

    -Ike williams

    TOP-NOTCH Instructor on Forex & Stock Trading Courses

    I currently have 70 Courses with 20,280+ Minutes of Content (338 hours in total) with 100,000+ Satisfied Students enrolled. That's 14+ days of learning material!

    Candlestick Trading Course Details:

    Candlestick charts are a visual aid for decision making in Forex, commodities & Stock Trading.

    Since Last 200 years it is working and helping traders make easy money.

    Japanese Candlestick Chart is the first choice of all Professional Traders. As without Japanese Candlestick Charts, you cannot read or predict market movements. Candlestick Trading serve as a cornerstone of technical analysis

    Through this Course, You'll learn precisely How these Candlestick Chart pattern looks and works. These Candlestick Chart Pattern are easy to understand but hard to analyze.

    I will teach you through Charts & Presentations. I will present Stock trading on Real Candlestick Charts and show you how they look in real charts.

    In This Course, I will Teach you 42 recognized Candlestick Chart patterns that can be split into simple and complex Chart patterns.

    No Other Candlestick or Stock Trading Course Does that!!!!

    Candlestick Chart Patterns are best for forecasting Stock Market & has worked for 100+ years.

    Candlestick Patterns easily predict stock market & is the Cornerstone of Candlestick Charts & Technical Analysis.

    I will explain you basic concepts of Candlestick & Stock Trading in easy way as if I am explaining to a 5 year old.

    I will explain how to enter and exit a Trade through Candlestick Chart Pattern Trading.

    I will explain how to avoid traps in Stock investment through Candlestick Chart Patterns.

    I will explain complicated Candlestick Patterns to trade with confidence.

    This course comes with guarantee that you can always apply for 100% Refund within 30 days.

    Make Stock Market your darling and you will never see losses.

    This course will teach you How Stock Trading Works & How to become a stock trading expert.

    Disclaimer Note: This Stock Trading course is for educational and informational purposes only. Not recommending of any particular investments such as a particular stock or mutual fund.

    Other Reviews:

    A very comprehensive course on Candlestick Charting, Worth every penny.

    -Gary Pope

    I love the clear, upbeat tone of the course, and the instructor seems very knowledgeable about the subject. He even offers "proof of earnings". I have already learned much just in the introductory section.

    -Darrell Robinson

    Excellent course. Exclusive candlestick patterns taught in this course, that no one else is teaching. I recommend this course for traders on all levels.

    -Sorte` Aura

    Candlestick Trading can easily predict Forex & Stock Trading Movements & will Make You an Expert at Technical Analysis.

    -James

    Explained very practical things, not wasted time on theory stuff rather started with real time charts with correct examples. I am satisfied and enjoying this course.

    -Anuj Kumar

    Who this course is for:
    Anyone who want to learn top down approach
    Anyone interested in Candlestick Technique

    What you'll learn
    Learn complex Candlestick Patterns for Stock Trading like Marubozu, Bearish Harami Cross & Tweezer Bottoms
    Understanding Different kinds of Candlestick Chart Patterns in stock trading
    Learn Candlestick Chart in respect to Stock Trading
    Learn simple Candlestick Patterns for Stock Trading like Long Lower Shadow, Gravestone Doji & Inverted Hammer
    Know when to enter or exit a Forex or Stock trade
    Refresh your Forex or Stock trading knowledge
    Real Examples of Penny stock, Cryptocurrency, Gold, Forex & Stocks.
    Learn Other Technical Analysis tools like VIX

    General
    Complete name : 3. Bitcoin Daily Candlestick Trading.mp4
    Format : MPEG-4
    Format profile : Base Media / Version 2
    Codec ID : mp42 (isom/iso2/avc1/mp41/mp42)
    File size : 59.4 MiB
    Duration : 20 min 55 s
    Overall bit rate mode : Variable
    Overall bit rate : 397 kb/s
    Encoded date : UTC 2018-01-28 07:53:40
    Tagged date : UTC 2018-01-28 07:53:40
    Writing application : Lavf53.32.100

    Video
    ID : 1
    Format : AVC
    Format/Info : Advanced Video Codec
    Format profile : High@L3
    Format settings : CABAC / 4 Ref Frames
    Format settings, CABAC : Yes
    Format settings, RefFrames : 4 frames
    Codec ID : avc1
    Codec ID/Info : Advanced Video Coding
    Duration : 20 min 55 s
    Bit rate : 205 kb/s
    Width : 1 280 pixels
    Height : 720 pixels
    Display aspect ratio : 16:9
    Frame rate mode : Constant
    Frame rate : 20.000 FPS
    Color space : YUV
    Chroma subsampling : 4:2:0
    Bit depth : 8 bits
    Scan type : Progressive
    Bits/(Pixel*Frame) : 0.011
    Stream size : 30.7 MiB (52%)
    Writing library : x264 core 136
    Encoding settings : cabac=1 / ref=4 / deblock=1:0:0 / analyse=0x3:0x113 / me=umh / subme=7 / psy=0 / mixed_ref=1 / me_range=16 / chroma_me=1 / trellis=1 / 8x8dct=1 / cqm=0 / deadzone=21,11 / fast_pskip=0 / chroma_qp_offset=0 / threads=54 / lookahead_threads=5 / sliced_threads=0 / nr=0 / decimate=1 / interlaced=0 / bluray_compat=0 / constrained_intra=0 / bframes=16 / b_pyramid=2 / b_adapt=1 / b_bias=0 / direct=1 / weightb=1 / open_gop=0 / weightp=2 / keyint=300 / keyint_min=25 / scenecut=40 / intra_refresh=0 / rc=2pass / mbtree=0 / bitrate=205 / ratetol=1.0 / qcomp=0.60 / qpmin=10 / qpmax=51 / qpstep=4 / cplxblur=20.0 / qblur=0.5 / ip_ratio=1.40 / pb_ratio=1.30 / aq=1:1.00
    Language : English
    Encoded date : UTC 2018-01-28 07:53:40
    Tagged date : UTC 2018-01-28 09:14:33

    Audio
    ID : 2
    Format : AAC
    Format/Info : Advanced Audio Codec
    Format profile : LC
    Codec ID : mp4a-40-2
    Duration : 20 min 55 s
    Bit rate mode : Variable
    Bit rate : 192 kb/s
    Channel(s) : 2 channels
    Channel positions : Front: L R
    Sampling rate : 48.0 kHz
    Frame rate : 46.875 FPS (1024 SPF)
    Compression mode : Lossy
    Stream size : 28.3 MiB (48%)
    Default : Yes
    Alternate group : 1
    Encoded date : UTC 2018-01-28 07:53:40
    Tagged date : UTC 2018-01-28 09:14:33

    Screenshots








    Download link:
    Code:
    rapidgator_net: https://rapidgator.net/file/3fc6e0ff86bc7e6043da226e084557d2/2v6j6.Udemy..Candlestick.Trading.Ninja.10.Hour.Candlestick.Certification.2019.part01.rar.html https://rapidgator.net/file/50a5445cb57465e02102f9efb03c103e/2v6j6.Udemy..Candlestick.Trading.Ninja.10.Hour.Candlestick.Certification.2019.part02.rar.html https://rapidgator.net/file/134d0b52bade4bd32af8746b4c1537fd/2v6j6.Udemy..Candlestick.Trading.Ninja.10.Hour.Candlestick.Certification.2019.part03.rar.html https://rapidgator.net/file/d4a7c36debc405dff177dce766db3295/2v6j6.Udemy..Candlestick.Trading.Ninja.10.Hour.Candlestick.Certification.2019.part04.rar.html https://rapidgator.net/file/f60b1b05d9e68532f3916a49c69d62b2/2v6j6.Udemy..Candlestick.Trading.Ninja.10.Hour.Candlestick.Certification.2019.part05.rar.html https://rapidgator.net/file/0e1f8e9aba1016677228e16e8f72847b/2v6j6.Udemy..Candlestick.Trading.Ninja.10.Hour.Candlestick.Certification.2019.part06.rar.html https://rapidgator.net/file/0f46df103c1e7fdcd9c41ac352d526d0/2v6j6.Udemy..Candlestick.Trading.Ninja.10.Hour.Candlestick.Certification.2019.part07.rar.html https://rapidgator.net/file/6f8a268d4688b9f0f245b9ac035fb918/2v6j6.Udemy..Candlestick.Trading.Ninja.10.Hour.Candlestick.Certification.2019.part08.rar.html https://rapidgator.net/file/d82e59422b6cf4bc47d2110552e27c6b/2v6j6.Udemy..Candlestick.Trading.Ninja.10.Hour.Candlestick.Certification.2019.part09.rar.html nitroflare_com: https://nitroflare.com/view/95BAE655605CF17/2v6j6.Udemy..Candlestick.Trading.Ninja.10.Hour.Candlestick.Certification.2019.part01.rar https://nitroflare.com/view/98231D487BC7569/2v6j6.Udemy..Candlestick.Trading.Ninja.10.Hour.Candlestick.Certification.2019.part02.rar https://nitroflare.com/view/8D73983D3B35D47/2v6j6.Udemy..Candlestick.Trading.Ninja.10.Hour.Candlestick.Certification.2019.part03.rar https://nitroflare.com/view/01FC545B50619B8/2v6j6.Udemy..Candlestick.Trading.Ninja.10.Hour.Candlestick.Certification.2019.part04.rar https://nitroflare.com/view/F97791433A2E18E/2v6j6.Udemy..Candlestick.Trading.Ninja.10.Hour.Candlestick.Certification.2019.part05.rar https://nitroflare.com/view/A7088C115685E80/2v6j6.Udemy..Candlestick.Trading.Ninja.10.Hour.Candlestick.Certification.2019.part06.rar https://nitroflare.com/view/D66FCDFDF43C39F/2v6j6.Udemy..Candlestick.Trading.Ninja.10.Hour.Candlestick.Certification.2019.part07.rar https://nitroflare.com/view/C4A1C6510593E83/2v6j6.Udemy..Candlestick.Trading.Ninja.10.Hour.Candlestick.Certification.2019.part08.rar https://nitroflare.com/view/B20BCE881FED559/2v6j6.Udemy..Candlestick.Trading.Ninja.10.Hour.Candlestick.Certification.2019.part09.rar uploadgig_com: http://uploadgig.com/file/download/606e9D5dfc63b34d/2v6j6.Udemy..Candlestick.Trading.Ninja.10.Hour.Candlestick.Certification.2019.part01.rar http://uploadgig.com/file/download/77500b117721c8cE/2v6j6.Udemy..Candlestick.Trading.Ninja.10.Hour.Candlestick.Certification.2019.part02.rar http://uploadgig.com/file/download/de9c484aD72Fa475/2v6j6.Udemy..Candlestick.Trading.Ninja.10.Hour.Candlestick.Certification.2019.part03.rar http://uploadgig.com/file/download/a7f862fcb2Cc32e9/2v6j6.Udemy..Candlestick.Trading.Ninja.10.Hour.Candlestick.Certification.2019.part04.rar http://uploadgig.com/file/download/A8250af7dC467052/2v6j6.Udemy..Candlestick.Trading.Ninja.10.Hour.Candlestick.Certification.2019.part05.rar http://uploadgig.com/file/download/5A98b50c98b52536/2v6j6.Udemy..Candlestick.Trading.Ninja.10.Hour.Candlestick.Certification.2019.part06.rar http://uploadgig.com/file/download/f74803D5c329D2f8/2v6j6.Udemy..Candlestick.Trading.Ninja.10.Hour.Candlestick.Certification.2019.part07.rar http://uploadgig.com/file/download/3cBe0c16632baFD9/2v6j6.Udemy..Candlestick.Trading.Ninja.10.Hour.Candlestick.Certification.2019.part08.rar http://uploadgig.com/file/download/08ca842769776604/2v6j6.Udemy..Candlestick.Trading.Ninja.10.Hour.Candlestick.Certification.2019.part09.rar
    Links are Interchangeable - No Password - Single Extraction

  10. #7490
    Join Date
    Jun 2016
    Posts
    24,104
    Rep Power
    55

    Default 60 AutoCAD 2D & 3D Drawings and Practical Projects



    60 AutoCAD 2D & 3D Drawings and Practical Projects
    .MP4, AVC, 1280x720, 30 fps | English, AAC, 2 Ch | 10h 5m | 1.89 GB
    Instructor: Jaiprakash Pandey

    Learn AutoCAD with real 2D and 3D drawings and projects from various engineering disciplines

    Learn

    Make professional drawings in AutoCAD
    2D practice drawings
    3D practice drawings
    Make a floor plan from a blank drawing

    About

    If you have a basic knowledge of AutoCAD and want to practice with real-world and hands-on AutoCAD drawings, then this course is for you. This has a huge collection of AutoCAD 2D and 3D drawings and is regularly updated with new drawings.

    This course includes

    * More than 60 2D and 3D practice drawings

    * Real-life and practical projects from different engineering disciplines

    Features

    Real-life and practical projects from various engineering disciplines
    A practical course with more than 60 2D and 3D practice drawings

    More Info
    Code:
    https://www.packtpub.com/business-other/60-autocad-2d-3d-drawings-and-practical-projects-video


    Download link:
    Code:
    rapidgator_net: https://rapidgator.net/file/8ec1ec5e6acbfcd42df01fb1ca63f214/024e4.60.AutoCAD.2D..3D.Drawings.and.Practical.Projects.rar.html nitroflare_com: https://nitroflare.com/view/6FB5FA642973E28/024e4.60.AutoCAD.2D..3D.Drawings.and.Practical.Projects.rar uploadgig_com: http://uploadgig.com/file/download/2ab6b022aAd8c71e/024e4.60.AutoCAD.2D..3D.Drawings.and.Practical.Projects.rar
    Links are Interchangeable - No Password - Single Extraction

Similar Threads

  1. All missyou123's Applications !! (updated daily)
    By missyou123 in forum PC Application Downloads
    Replies: 12198
    Last Post: 1 Week Ago, 05:12 PM
  2. All missyou123's Mac OSX Applications !! (updated daily)
    By missyou123 in forum Mac Applications & Tools
    Replies: 3980
    Last Post: 2 Weeks Ago, 05:58 PM
  3. All mitsumi1's tutorials !! (updated daily)
    By mitsumi1 in forum PC Tutorials
    Replies: 0
    Last Post: 20th September 2017, 03:07 PM
  4. All mitsumi1's Applications !! (updated daily)
    By mitsumi1 in forum PC Application Downloads
    Replies: 0
    Last Post: 20th September 2017, 03:00 PM
  5. Funny Images of the day Updated Daily!
    By super_uploader in forum Fun & Games
    Replies: 21
    Last Post: 24th January 2012, 06:30 PM

Posting Permissions

  • You may not post new threads
  • You may not post replies
  • You may not post attachments
  • You may not edit your posts
  •  
Please contact us for your DMCA OR Abuse Requests via
dmca@xbox360iso.com
Xbox360ISO website is not endorsed by or affiliated with Xbox and/or Microsoft Corporation.
eXTReMe Tracker