Page 332 of 332 FirstFirst ... 232282322330331332
Results 3,311 to 3,318 of 3318

Thread: All missyou123's tutorials !! (updated daily)

  1. #3311
    Join Date
    Jun 2016
    Posts
    10,661
    Rep Power
    27

    Default The Portrait Masters - One Strobe on Location



    The Portrait Masters - One Strobe on Location
    MP4 | Video: AVC 1280x720 | Audio: AAC 44KHz 2ch | Duration: 1 Hours | 1.49 GB
    Genre: eLearning | Language: English

    An introduction to shooting with strobes on-location, Sue and Felix show you how to augment your images to give them an edge that will make them stand out from the crowd. Join them as they walk you through how they approach artificial lighting on location with subtle methods to accentuate the face, the client's outfit, and have control over the entire look and feel of the image.



    Download link:
    Code:
    uploadgig_com: https://uploadgig.com/file/download/4Caf5Ad987A730e5/j6npi.The.Portrait.Masters..One.Strobe.on.Location.part1.rar https://uploadgig.com/file/download/2389adAcd730d043/j6npi.The.Portrait.Masters..One.Strobe.on.Location.part2.rar https://uploadgig.com/file/download/82e7881e01d64527/j6npi.The.Portrait.Masters..One.Strobe.on.Location.part3.rar https://uploadgig.com/file/download/9c22aFcb899223b2/j6npi.The.Portrait.Masters..One.Strobe.on.Location.part4.rar rapidgator_net: https://rapidgator.net/file/c5ed8cb051f55bb3a80a3451715c6021/j6npi.The.Portrait.Masters..One.Strobe.on.Location.part1.rar.html https://rapidgator.net/file/d57b012ab4ad43ba8b6c9297f28a271b/j6npi.The.Portrait.Masters..One.Strobe.on.Location.part2.rar.html https://rapidgator.net/file/1e652c951d3cf5ef2b0660b707900bf0/j6npi.The.Portrait.Masters..One.Strobe.on.Location.part3.rar.html https://rapidgator.net/file/864331541e0426924ce2d393bc2744da/j6npi.The.Portrait.Masters..One.Strobe.on.Location.part4.rar.html nitroflare_com: http://nitroflare.com/view/A0B41C0BC8B28B1/j6npi.The.Portrait.Masters..One.Strobe.on.Location.part1.rar http://nitroflare.com/view/69435AB9AF4CE9C/j6npi.The.Portrait.Masters..One.Strobe.on.Location.part2.rar http://nitroflare.com/view/DB11FB162BD16A4/j6npi.The.Portrait.Masters..One.Strobe.on.Location.part3.rar http://nitroflare.com/view/0409249B088E7FF/j6npi.The.Portrait.Masters..One.Strobe.on.Location.part4.rar
    Links are Interchangeable - No Password - Single Extraction

  2. #3312
    Join Date
    Jun 2016
    Posts
    10,661
    Rep Power
    27

    Default The Retouching Series Eyelashes



    The Retouching Series: Eyelashes
    MP4 | Video: AVC 1280x720 | Audio: AAC 44KHz 2ch | Duration: 10M | 171 MB
    Genre: eLearning | Language: English

    Much like the effect of mascara, learn to add volume to eyelashes. Pratik shows us how to draw them in realistically and how to effectively clean them up. For portraits that command attention to the eyes, this is a must-have skill!



    Download link:
    Code:
    uploadgig_com: https://uploadgig.com/file/download/A67024b9Ffcd0bDb/bo6pn.The.Retouching.Series.Eyelashes.part1.rar https://uploadgig.com/file/download/1ab4E66256C81417/bo6pn.The.Retouching.Series.Eyelashes.part2.rar rapidgator_net: https://rapidgator.net/file/62db1d11a5ad9247ee9be3f8054103eb/bo6pn.The.Retouching.Series.Eyelashes.part1.rar.html https://rapidgator.net/file/698d9e9797f972217074a98300f22579/bo6pn.The.Retouching.Series.Eyelashes.part2.rar.html nitroflare_com: http://nitroflare.com/view/459A722B260D31A/bo6pn.The.Retouching.Series.Eyelashes.part1.rar http://nitroflare.com/view/8C021C06F76F8F8/bo6pn.The.Retouching.Series.Eyelashes.part2.rar
    Links are Interchangeable - No Password - Single Extraction

  3. #3313
    Join Date
    Jun 2016
    Posts
    10,661
    Rep Power
    27

    Default Udemy - Learn Devops Continuously Deliver Better Software



    Udemy - Learn Devops Continuously Deliver Better Software
    WEBRip | English | MP4 | 1280 x 720 | AVC ~1080 Kbps | 30 fps
    AAC | 53.8 Kbps | 48.0 KHz | 2 channels | ~4.5 hours | 1.04 GB
    Genre: Video Tutorial
    Excel in delivering and deploying software using Git, Vagrant, Chef, Ansible, Jenkins, Docker, and Kubernetes

    In this course you will learn how to apply DevOps. Why DevOps? It is one of the most sought after skills in the IT industry. The average salary in the US is $105,000 per year (source: Glassdoor), up to an average of $146,000 in San Fransisco (source: Indeed).

    The course is aimed at software engineers and system administrators that want to deliver better software. Other IT professionals can also take this course, but might have to do some extra research to understand some of the concepts.

    You will learn how to improve the Software Development Lifecycle by applying techniques to improve software delivery. I will explain how to improve delivery using automation, configuration management, provisioning and deployment tools. I also cover newer tools like Docker and Kubernetes. Where possible I point you towards the best practices in the field.

    The course is very practical. There is about 3 to 4 hours of lectures, but you want to try out everything yourself, which will add multiple hours of learning. If you get stuck with the technology while trying, there is support available. I will answer your messages on the message boards and we have a Facebook group where you can post questions.

    February 2016 Updates:

    Added content about building tools like sbt and maven
    By popular demand: added more Docker content about the architecture, images, volumes, and networking
    Who this course is for:
    This course is suitable for System Administrators, Developers, IT Managers, IT Operations team members, who want to learn more about DevOps. If you are not exposed to software delivery, this course might not be suitable for you.

    What you'll learn
    Apply DevOps in your team
    Understand Continuous Delivery
    Automate the Software Development Lifecycle (SDLC)
    Automate the deployment process
    Reduce release time
    Release better software
    Build a highly available and fully scalable application
    Deploy microservices using Docker and Kubernetes
    Automate using Ansible and Chef

    General
    Complete name : 3. Artifact storage and deployment demo.mp4
    Format : MPEG-4
    Format profile : Base Media
    Codec ID : isom (isom/avc1/mp42)
    File size : 80.3 MiB
    Duration : 9 min 52 s
    Overall bit rate mode : Variable
    Overall bit rate : 1 138 kb/s
    Encoded date : UTC 2015-11-08 21:24:39
    Tagged date : UTC 2015-11-08 21:24:39

    Video
    ID : 1
    Format : AVC
    Format/Info : Advanced Video Codec
    Format profile : Baseline@L3.2
    Format settings : 3 Ref Frames
    Format settings, CABAC : No
    Format settings, RefFrames : 3 frames
    Format settings, GOP : M=1, N=50
    Codec ID : avc1
    Codec ID/Info : Advanced Video Coding
    Duration : 9 min 51 s
    Bit rate : 1 080 kb/s
    Maximum bit rate : 11.6 Mb/s
    Width : 1 280 pixels
    Height : 720 pixels
    Display aspect ratio : 16:9
    Frame rate mode : Constant
    Frame rate : 59.940 (60000/1001) FPS
    Color space : YUV
    Chroma subsampling : 4:2:0
    Bit depth : 8 bits
    Scan type : Progressive
    Bits/(Pixel*Frame) : 0.020
    Stream size : 76.2 MiB (95%)
    Writing library : Zencoder Video Encoding System
    Encoded date : UTC 2015-11-08 21:18:15
    Tagged date : UTC 2015-11-08 21:24:39
    Color range : Limited
    Color primaries : BT.709
    Transfer characteristics : BT.709
    Matrix coefficients : BT.709

    Audio
    ID : 2
    Format : AAC
    Format/Info : Advanced Audio Codec
    Format profile : LC
    Codec ID : mp4a-40-2
    Duration : 9 min 52 s
    Bit rate mode : Variable
    Bit rate : 53.8 kb/s
    Maximum bit rate : 61.2 kb/s
    Channel(s) : 2 channels
    Channel positions : Front: L R
    Sampling rate : 48.0 kHz
    Frame rate : 46.875 FPS (1024 SPF)
    Compression mode : Lossy
    Stream size : 3.80 MiB (5%)
    Encoded date : UTC 2015-11-08 21:18:15
    Tagged date : UTC 2015-11-08 21:24:39

    Screenshots








    Download link:
    Code:
    uploadgig_com: https://uploadgig.com/file/download/6Bec0d568aD92e7D/s6pzz.Udemy..Learn.Devops.Continuously.Deliver.Better.Software.part1.rar https://uploadgig.com/file/download/452f67a7a9F544c0/s6pzz.Udemy..Learn.Devops.Continuously.Deliver.Better.Software.part2.rar https://uploadgig.com/file/download/e39ce05b76C97530/s6pzz.Udemy..Learn.Devops.Continuously.Deliver.Better.Software.part3.rar rapidgator_net: https://rapidgator.net/file/7dd0bd060a0954e4c61ee5af01d47fe5/s6pzz.Udemy..Learn.Devops.Continuously.Deliver.Better.Software.part1.rar.html https://rapidgator.net/file/297f44b615fe6e5262afeb8e0166408d/s6pzz.Udemy..Learn.Devops.Continuously.Deliver.Better.Software.part2.rar.html https://rapidgator.net/file/13b7d0ed6ceccec5f671214e379be217/s6pzz.Udemy..Learn.Devops.Continuously.Deliver.Better.Software.part3.rar.html nitroflare_com: http://nitroflare.com/view/444D506A457CA62/s6pzz.Udemy..Learn.Devops.Continuously.Deliver.Better.Software.part1.rar http://nitroflare.com/view/47867E05BAD18A3/s6pzz.Udemy..Learn.Devops.Continuously.Deliver.Better.Software.part2.rar http://nitroflare.com/view/5DFD7FC83348C48/s6pzz.Udemy..Learn.Devops.Continuously.Deliver.Better.Software.part3.rar
    Links are Interchangeable - No Password - Single Extraction

  4. #3314
    Join Date
    Jun 2016
    Posts
    10,661
    Rep Power
    27

    Default UXPin Design Sprints and Reviews



    UXPin: Design Sprints and Reviews
    MP4 | Video: AVC 1280x720 | Audio: AAC 44KHz 2ch | Duration: 1 Hour | 177 MB
    Genre: eLearning | Language: English

    Discover how to use UXPin to manage design sprints and stakeholder design reviews. In this course, Emmanuel Henri shows how to prototype interactive user experiences in UXPin, and incorporate feedback from stakeholders as you iterate through design changes. Learn how to start a new project and import assets from other design tools; build and finalize screens; create design systems that other designers and developers can leverage; and share your work. Then find out how to incorporate changes from the review process and save different versions-iterations-of your design. Plus, get tips for conducting more effective review sessions with your stakeholders.



    Download link:
    Code:
    uploadgig_com: https://uploadgig.com/file/download/3966EDAb313503d7/btjv1.UXPin.Design.Sprints.and.Reviews.part1.rar https://uploadgig.com/file/download/6fe34339b6F46a70/btjv1.UXPin.Design.Sprints.and.Reviews.part2.rar rapidgator_net: https://rapidgator.net/file/a3bd13d7f3f12dea75240cd86c1b30cb/btjv1.UXPin.Design.Sprints.and.Reviews.part1.rar.html https://rapidgator.net/file/e3eca563e5bd1a2629923364108fd78e/btjv1.UXPin.Design.Sprints.and.Reviews.part2.rar.html nitroflare_com: http://nitroflare.com/view/BBF1C2D4D03933D/btjv1.UXPin.Design.Sprints.and.Reviews.part1.rar http://nitroflare.com/view/DD61E7AC4EDCEA5/btjv1.UXPin.Design.Sprints.and.Reviews.part2.rar
    Links are Interchangeable - No Password - Single Extraction

  5. #3315
    Join Date
    Jun 2016
    Posts
    10,661
    Rep Power
    27

    Default Value and dividend investing, Competitive forces analysis



    Value and dividend investing, Competitive forces analysis
    MP4 | Video: AVC 1280x720 | Audio: AAC 44KHz 2ch | Duration: 6 Hours | Lec: 40 | 957 MB
    Genre: eLearning | Language: English

    Build your business acumen. Investment fundamental analysis of companies on the stock market without using financials.

    As an investor, how often do you find yourself lost when you try to read the company's reports?

    Do you have the acumen to understand the industry competitive landscape? Is the industry competitive? Are there any barriers to entry to ward off new competitors? Does the industry have frequent price wars that will destroy the company's profitability?

    When it comes to fundamental analysis, most courses would talk about financial analysis, ratio analysis, PE ratios, and efficiency ratios. Yes, these are definitely important, and you probably are an expert on these already. But do you know the competitive forces that will determine a company's success or failure? These competitive forces will provide better insights into what will happen into the future when combined with financial analysis.

    In this course, we will be mastering the 5 forces analysis framework. This is one of the most powerful framework for us investors to determine the competitive landscape of the industry in a systematic manner.

    We will go through the 5 forces in detail that includes

    Buyer and supplier Power
    Threats of Substitute Product
    Threats of new entrants
    Threats of internal rivalry
    Along the way, I will share my first hand business experience beyond what you learn from textbooks.

    We will end off the course with 3 quality case studies. Each lecture includes a review question section to summarize your understanding.

    This course shall be conducted by an experience instructor with proven track record.

    Unlike some other courses out there where you just hear instructors talking endlessly, and you only see boring text in their power point presentation, this course shall include animations, images, charts and diagrams help you understand the various concepts and I guarantee your understanding.

    I promise I will not be teaching generic ideas like you must buy low and sell high. Also, this is also not a motivation class where I preach to you that you must work hard to succeed, or you must have discipline to profit from the market.

    In this course, I will teach you exact actionable methods and frame work that you can immediately apply to your investments.



    Download link:
    Code:
    uploadgig_com: https://uploadgig.com/file/download/7aaAd4c6f322043e/6xu4g.Value.and.dividend.investing.Competitive.forces.analysis.part1.rar https://uploadgig.com/file/download/e0aA9883E8e72865/6xu4g.Value.and.dividend.investing.Competitive.forces.analysis.part2.rar https://uploadgig.com/file/download/29B325a6E1ce7588/6xu4g.Value.and.dividend.investing.Competitive.forces.analysis.part3.rar https://uploadgig.com/file/download/9Bc4a5eB88351b6f/6xu4g.Value.and.dividend.investing.Competitive.forces.analysis.part4.rar rapidgator_net: https://rapidgator.net/file/45a5385323545106a12068c72805fcf1/6xu4g.Value.and.dividend.investing.Competitive.forces.analysis.part1.rar.html https://rapidgator.net/file/b40d0ebc7f49b9beb0a516c9fda94a12/6xu4g.Value.and.dividend.investing.Competitive.forces.analysis.part2.rar.html https://rapidgator.net/file/ef0abe65bbfd01037f7117526b217889/6xu4g.Value.and.dividend.investing.Competitive.forces.analysis.part3.rar.html https://rapidgator.net/file/3189d3b964006af7d24fd49109881232/6xu4g.Value.and.dividend.investing.Competitive.forces.analysis.part4.rar.html nitroflare_com: http://nitroflare.com/view/B284755FBF29623/6xu4g.Value.and.dividend.investing.Competitive.forces.analysis.part1.rar http://nitroflare.com/view/30B1471309D08AA/6xu4g.Value.and.dividend.investing.Competitive.forces.analysis.part2.rar http://nitroflare.com/view/DD8E2CD2C6EB13E/6xu4g.Value.and.dividend.investing.Competitive.forces.analysis.part3.rar http://nitroflare.com/view/26C5CCEB8EC4A0E/6xu4g.Value.and.dividend.investing.Competitive.forces.analysis.part4.rar
    Links are Interchangeable - No Password - Single Extraction

  6. #3316
    Join Date
    Jun 2016
    Posts
    10,661
    Rep Power
    27

    Default Collecting and Preparing Data for MicroStrategy



    Collecting and Preparing Data for MicroStrategy
    MP4 | Video: AVC 1280x720 | Audio: AAC 44KHz 2ch | Duration: 1.5 Hours | 145 MB
    Genre: eLearning | Language: English

    This course will walk you through acquiring data to use within MicroStrategy for analysis. It covers use of the MicroStrategy object model, external data, and ways of storing that data for easier analysis.

    The need for data-driven decisions is ever-growing in today's tech business world. In this course, Collecting and Preparing Data for MicroStrategy, you will gain the ability to acquire data for use within MicroStrategy for analysis. First, you will learn how to work with the MicroStrategy object model. Next, you will discover the process for bringing in external unmodeled data. Finally, you will explore how to get that data in a format that supports your ability to analyze it. When you are finished with this course, you will have the skills and knowledge of MicroStrategy data acquisition needed to begin building your own reporting.



    Download link:
    Code:
    uploadgig_com: https://uploadgig.com/file/download/8D75b8ec76a568e3/esc0w.Collecting.and.Preparing.Data.for.MicroStrategy.part1.rar https://uploadgig.com/file/download/7cec16f7e0663178/esc0w.Collecting.and.Preparing.Data.for.MicroStrategy.part2.rar rapidgator_net: https://rapidgator.net/file/ba2b19fcd490cbddedbef5295d0f514b/esc0w.Collecting.and.Preparing.Data.for.MicroStrategy.part1.rar.html https://rapidgator.net/file/25f4b5f93a8022527c4a157ecbce85e1/esc0w.Collecting.and.Preparing.Data.for.MicroStrategy.part2.rar.html nitroflare_com: http://nitroflare.com/view/85A6386F5CAEECC/esc0w.Collecting.and.Preparing.Data.for.MicroStrategy.part1.rar http://nitroflare.com/view/F92B9D94780F69F/esc0w.Collecting.and.Preparing.Data.for.MicroStrategy.part2.rar
    Links are Interchangeable - No Password - Single Extraction

  7. #3317
    Join Date
    Jun 2016
    Posts
    10,661
    Rep Power
    27

    Default Hard Rock Mixing Session (2019)



    Hard Rock Mixing Session (2019)
    WEBRip | English | MP4 | 1920 x 1080 | AVC ~3309 kbps | 29.970 fps
    AAC 256 Kbps 48.0 KHz | 2 channels | 03:23:13 | 5.19 GB
    Genre: eLearning Video / Sound Processing, Music Production
    Award-winning engineer Chris Baseford (Rob Zombie, Nickelback, Avril Lavigne) shares his mixing secrets on this tell-all episode of Pro Studio Live.

    Chris Baseford, award winning engineer hailing from Canada, is here to share his Hard Rock mixing expertise! With past clients that include Rob Zombie, John 5 and Nickelback, this man knows the ins-and-outs of Hard Rock production and he shares all of it with Pro Studio Live. For this event Chris brought with him a mix session that he did for the Hard Rock band Burn the Headlines.

    In this session he breaks down how he's set up his routing to resemble an analog SSL Mixing Console, how he uses specific tools like compression, equalization, and reverb to enhance different parts of an instrument as well as sharing an awesome trick that utilizes the multi-mono functionality of some plugins to help keep his organization locked in! He also takes time to answer some general engineering questions that our viewers had for him. Watch this event and learn how Chris creates his powerful productions that have helped define the Hard Rock genre.

    General
    Complete name : Episode 2.mp4
    Format : MPEG-4
    Format profile : Base Media / Version 2
    Codec ID : mp42 (mp42/mp41/isom/avc1)
    File size : 1.23 GiB
    Duration : 49 min 19 s
    Overall bit rate mode : Variable
    Overall bit rate : 3 569 kb/s
    Encoded date : UTC 2015-06-17 05:04:11
    Tagged date : UTC 2015-06-17 05:04:11

    Video
    ID : 1
    Format : AVC
    Format/Info : Advanced Video Codec
    Format profile : High@L4
    Format settings : CABAC / 4 Ref Frames
    Format settings, CABAC : Yes
    Format settings, RefFrames : 4 frames
    Codec ID : avc1
    Codec ID/Info : Advanced Video Coding
    Duration : 49 min 19 s
    Bit rate : 3 309 kb/s
    Width : 1 920 pixels
    Height : 1 080 pixels
    Display aspect ratio : 16:9
    Frame rate mode : Constant
    Frame rate : 29.970 (30000/1001) FPS
    Color space : YUV
    Chroma subsampling : 4:2:0
    Bit depth : 8 bits
    Scan type : Progressive
    Bits/(Pixel*Frame) : 0.053
    Stream size : 1.14 GiB (93%)
    Writing library : x264 core 146 r16 121396c
    Encoding settings : cabac=1 / ref=3 / deblock=1:0:0 / analyse=0x3:0x113 / me=hex / subme=7 / psy=1 / psy_rd=1.00:0.00 / mixed_ref=1 / me_range=16 / chroma_me=1 / trellis=1 / 8x8dct=1 / cqm=0 / deadzone=21,11 / fast_pskip=1 / chroma_qp_offset=-2 / threads=84 / lookahead_threads=8 / sliced_threads=0 / nr=0 / decimate=1 / interlaced=0 / bluray_compat=0 / stitchable=1 / constrained_intra=0 / bframes=3 / b_pyramid=2 / b_adapt=1 / b_bias=0 / direct=1 / weightb=1 / open_gop=0 / weightp=2 / keyint=infinite / keyint_min=29 / scenecut=40 / intra_refresh=0 / rc_lookahead=40 / rc=crf / mbtree=1 / crf=20.0 / qcomp=0.60 / qpmin=5 / qpmax=69 / qpstep=4 / vbv_maxrate=4950 / vbv_bufsize=13500 / crf_max=0.0 / nal_hrd=none / filler=0 / ip_ratio=1.40 / aq=1:1.00
    Encoded date : UTC 2015-06-17 05:04:11
    Tagged date : UTC 2015-06-17 05:04:11
    Color range : Limited
    Color primaries : BT.709
    Transfer characteristics : BT.709
    Matrix coefficients : BT.709

    Audio
    ID : 2
    Format : AAC
    Format/Info : Advanced Audio Codec
    Format profile : LC
    Codec ID : mp4a-40-2
    Duration : 49 min 19 s
    Bit rate mode : Variable
    Bit rate : 256 kb/s
    Channel(s) : 2 channels
    Channel positions : Front: L R
    Sampling rate : 48.0 kHz
    Frame rate : 46.875 FPS (1024 SPF)
    Compression mode : Lossy
    Stream size : 90.3 MiB (7%)
    Encoded date : UTC 2015-06-17 05:04:11
    Tagged date : UTC 2015-06-17 05:04:11

    Screenshots








    Download link:
    Code:
    uploadgig_com: https://uploadgig.com/file/download/710c248BE052cDcB/v8cvc.Hard.Rock.Mixing.Session.2019.part1.rar https://uploadgig.com/file/download/0ecBEC0fc5c83faa/v8cvc.Hard.Rock.Mixing.Session.2019.part2.rar https://uploadgig.com/file/download/A63c7da9De27a531/v8cvc.Hard.Rock.Mixing.Session.2019.part3.rar https://uploadgig.com/file/download/29f5a41245A9e18f/v8cvc.Hard.Rock.Mixing.Session.2019.part4.rar https://uploadgig.com/file/download/07bE62a35E3136Ae/v8cvc.Hard.Rock.Mixing.Session.2019.part5.rar https://uploadgig.com/file/download/f34eadD99dcaF9e6/v8cvc.Hard.Rock.Mixing.Session.2019.part6.rar https://uploadgig.com/file/download/663E54a3dcA9a679/v8cvc.Hard.Rock.Mixing.Session.2019.part7.rar https://uploadgig.com/file/download/54b46c9f746F185C/v8cvc.Hard.Rock.Mixing.Session.2019.part8.rar rapidgator_net: https://rapidgator.net/file/430f508ff54e3502e997bbcea19e4108/v8cvc.Hard.Rock.Mixing.Session.2019.part1.rar.html https://rapidgator.net/file/ac69c8e5dcdcdba44ef836c2963584ce/v8cvc.Hard.Rock.Mixing.Session.2019.part2.rar.html https://rapidgator.net/file/9d628e67f7c9a373795bfc59f15b41d2/v8cvc.Hard.Rock.Mixing.Session.2019.part3.rar.html https://rapidgator.net/file/95dae3d117ff0c8f573cdb54ebb8ff27/v8cvc.Hard.Rock.Mixing.Session.2019.part4.rar.html https://rapidgator.net/file/0ec1e37f4c6018a716d372e36c0d0033/v8cvc.Hard.Rock.Mixing.Session.2019.part5.rar.html https://rapidgator.net/file/1cb1498960769fbffc4b25c10824a7d5/v8cvc.Hard.Rock.Mixing.Session.2019.part6.rar.html https://rapidgator.net/file/3b32bf786c5bcb8f0e6ed28b477b479f/v8cvc.Hard.Rock.Mixing.Session.2019.part7.rar.html https://rapidgator.net/file/19cb393def6cc5947c153877677aad80/v8cvc.Hard.Rock.Mixing.Session.2019.part8.rar.html nitroflare_com: http://nitroflare.com/view/59568EEB5EA37C8/v8cvc.Hard.Rock.Mixing.Session.2019.part1.rar http://nitroflare.com/view/6747E6083BFBDE8/v8cvc.Hard.Rock.Mixing.Session.2019.part2.rar http://nitroflare.com/view/8AE7851FAA71F8C/v8cvc.Hard.Rock.Mixing.Session.2019.part3.rar http://nitroflare.com/view/C85A8D58EE4B92D/v8cvc.Hard.Rock.Mixing.Session.2019.part4.rar http://nitroflare.com/view/2597BB474163116/v8cvc.Hard.Rock.Mixing.Session.2019.part5.rar http://nitroflare.com/view/99685D544A043C3/v8cvc.Hard.Rock.Mixing.Session.2019.part6.rar http://nitroflare.com/view/806101741729C73/v8cvc.Hard.Rock.Mixing.Session.2019.part7.rar http://nitroflare.com/view/8826567E53EDAFB/v8cvc.Hard.Rock.Mixing.Session.2019.part8.rar
    Links are Interchangeable - No Password - Single Extraction

  8. #3318
    Join Date
    Jun 2016
    Posts
    10,661
    Rep Power
    27

    Default Reducing Dimensions in Data with scikit-learn



    Reducing Dimensions in Data with scikit-learn
    MP4 | Video: AVC 1280x720 | Audio: AAC 44KHz 2ch | Duration: 2.5 Hours | 274 MB
    Genre: eLearning | Language: English

    This course covers a wide range of the important techniques of dimensionality reduction and feature selection available in scikit-learn, allowing model builders to optimize model performance by reducing overfitting, save on model training time and...

    Dimensionality Reduction is a powerful and versatile machine learning technique that can be used to improve the performance of virtually every ML model. Using dimensionality reduction, you can significantly speed up model training and validation, saving both time and money, as well as greatly reduce the risk of overfitting. In this course, Reducing Dimensions in Data with scikit-learn, you will gain the ability to design and implement an exhaustive array of feature selection and dimensionality reduction techniques in scikit-learn. First, you will learn the importance of dimensionality reduction, and understand the pitfalls of working with data of excessively high-dimensionality, often referred to as the curse of dimensionality. Next, you will discover how to implement feature selection techniques to decide which subset of the existing features we might choose to use, while losing as little information from the original, full dataset as possible. You will then learn important techniques for reducing dimensionality in linear data. Such techniques, notably Principal Components Analysis and Linear Discriminant Analysis, seek to re-orient the original data using new, optimized axes. The choice of these axes is driven by numeric procedures such as Eigenvalue and Singular Value Decomposition. You will then move to dealing with manifold data, which is non-linear and often takes the form of swiss rolls and S-curves. Such data presents an illusion of complexity, but is actually easily simplified by unrolling the manifold. Finally, you will explore how to implement a wide variety of manifold learning techniques including multi-dimensional scaling (MDS), isomap, and t-distributed Stochastic Neighbor Embedding (t-SNE). You will round out the course by comparing the results of these manifold unrolling techniques with different datasets, including images of faces and handwritten data. When you're finished with this course, you will have the skills and knowledge of Dimensionality Reduction needed to design and implement ways to mitigate the curse of dimensionality in scikit-learn.



    Download link:
    Code:
    uploadgig_com: https://uploadgig.com/file/download/5148df9F97c2b044/r61qo.Reducing.Dimensions.in.Data.with.scikitlearn.part1.rar https://uploadgig.com/file/download/8A8880670742d72f/r61qo.Reducing.Dimensions.in.Data.with.scikitlearn.part2.rar https://uploadgig.com/file/download/c4cf0bb57609137b/r61qo.Reducing.Dimensions.in.Data.with.scikitlearn.part3.rar rapidgator_net: https://rapidgator.net/file/b59b36024399183558a54a2751eade09/r61qo.Reducing.Dimensions.in.Data.with.scikitlearn.part1.rar.html https://rapidgator.net/file/9107e74b98fe9ca275917a5ef8b39b02/r61qo.Reducing.Dimensions.in.Data.with.scikitlearn.part2.rar.html https://rapidgator.net/file/7f4ee7324eb7cc874bf9d61f1ff5dc19/r61qo.Reducing.Dimensions.in.Data.with.scikitlearn.part3.rar.html nitroflare_com: http://nitroflare.com/view/EDF9ADC2CCEAA93/r61qo.Reducing.Dimensions.in.Data.with.scikitlearn.part1.rar http://nitroflare.com/view/B11ED6A121EDBBB/r61qo.Reducing.Dimensions.in.Data.with.scikitlearn.part2.rar http://nitroflare.com/view/C47ED1FE17FA4AF/r61qo.Reducing.Dimensions.in.Data.with.scikitlearn.part3.rar
    Links are Interchangeable - No Password - Single Extraction

Similar Threads

  1. All missyou123's Applications !! (updated daily)
    By missyou123 in forum PC Application Downloads
    Replies: 5354
    Last Post: 11 Hours Ago, 06:49 PM
  2. All missyou123's Mac OSX Applications !! (updated daily)
    By missyou123 in forum Mac Applications & Tools
    Replies: 1901
    Last Post: 11 Hours Ago, 06:36 PM
  3. All mitsumi1's tutorials !! (updated daily)
    By mitsumi1 in forum PC Tutorials
    Replies: 0
    Last Post: 20th September 2017, 03:07 PM
  4. All mitsumi1's Applications !! (updated daily)
    By mitsumi1 in forum PC Application Downloads
    Replies: 0
    Last Post: 20th September 2017, 03:00 PM
  5. Funny Images of the day Updated Daily!
    By super_uploader in forum Fun & Games
    Replies: 21
    Last Post: 24th January 2012, 06:30 PM

Posting Permissions

  • You may not post new threads
  • You may not post replies
  • You may not post attachments
  • You may not edit your posts
  •  
Please contact us for your DMCA OR Abuse Requests via
dmca@xbox360iso.com
Xbox360ISO website is not endorsed by or affiliated with Xbox and/or Microsoft Corporation.
eXTReMe Tracker